<?xml version="1.0" standalone="no"?>
<!DOCTYPE svg PUBLIC "-//W3C//DTD SVG 1.1//EN" "http://www.w3.org/Graphics/SVG/1.1/DTD/svg11.dtd" >
<svg xmlns="http://www.w3.org/2000/svg">
<metadata>Generated by IcoMoon</metadata>
<defs>
<font id="slide-login" horiz-adv-x="512">
<font-face units-per-em="512" ascent="480" descent="-32" />
<missing-glyph horiz-adv-x="512" />
<glyph unicode="&#x20;" d="" horiz-adv-x="256" />
<glyph unicode="&#xe011;" d="M111 130c-24 0-43-19-43-43 0-23 19-42 43-42 23 0 43 19 43 42 0 24-20 43-43 43zM111 62c-14 0-26 11-26 25 0 15 12 26 26 26s26-11 26-26c0-14-12-25-26-25zM237 277c-20 10-46 15-75 15-89 0-162-72-162-162 0-89 73-162 162-162 90 0 162 73 162 162 0 22-5 45-15 67l61 61h40v39l3 4h39v39l4 3h39v40l17 21v76h-72zM495 463v-53l-17-21v-28h-29l-14-14v-29h-29l-13-14v-29h-30l-75-75 3-5c11-22 16-43 16-65 0-80-65-145-145-145s-145 65-145 145c0 80 65 145 145 145 29 0 54-5 73-16l5-3 207 207z" />
<glyph unicode="&#xe018;" d="M265 156c-10 0-18-8-18-17 0-7 4-12 9-15 0-1 0-2 0-2v-60c0-5 4-9 9-9 4 0 8 4 8 9v60c0 0 0 1 0 2 5 3 9 8 9 15 0 9-8 17-17 17zM393 361c0 62-61 119-128 119s-128-57-128-119v-110c-27-30-43-69-43-112 0-94 76-171 171-171 94 0 170 77 170 171 0 43-16 82-42 112zM265 463c57 0 110-50 110-102v-93c-29 26-68 41-110 41-43 0-82-15-111-41v93c0 52 54 102 111 102zM265-15c-85 0-154 69-154 154 0 84 69 153 154 153 84 0 153-69 153-153 0-85-69-154-153-154z" />
<glyph unicode="&#xe0bd;" d="M9 87h128v-76c0-4 1-7 4-8 2-1 3-1 4-1 2 0 4 1 6 2l97 83h255c5 0 9 4 9 9v324c0 5-4 9-9 9h-494c-5 0-9-4-9-9v-324c0-5 4-9 9-9zM17 412h478v-307h-250c-2 0-4-1-5-3l-86-73v67c0 5-4 9-9 9h-128zM116 326h194c5 0 8 4 8 9s-3 8-8 8h-194c-5 0-8-3-8-8s3-9 8-9zM116 257h280c5 0 8 3 8 8s-3 9-8 9h-280c-5 0-8-4-8-9s3-8 8-8zM404 198c0 5-3 9-8 9h-280c-5 0-8-4-8-9 0-4 3-8 8-8h280c5 0 8 4 8 8z" />
<glyph unicode="&#xe0e4;" d="M256 480c-141 0-256-115-256-256s115-256 256-256c141 0 256 115 256 256s-115 256-256 256zM256-15c-132 0-239 107-239 239s107 239 239 239c132 0 239-107 239-239s-107-239-239-239zM418 215c-5 0-8-3-8-8 0-85-71-157-154-157s-154 72-154 157c0 5-3 8-8 8s-9-3-9-8c0-95 78-174 171-174s171 79 171 174c0 5-4 8-9 8zM111 258c5 0 8 4 8 9 0 19 22 35 40 35 20 0 37-17 37-35 0-5 4-9 9-9s8 4 8 9c0 27-25 52-54 52-27 0-57-23-57-52 0-5 4-9 9-9zM307 258c5 0 9 4 9 9 0 18 17 35 37 35 18 0 40-16 40-35 0-5 3-9 8-9s9 4 9 9c0 29-30 52-57 52-29 0-54-25-54-52 0-5 3-9 8-9z" />
<glyph unicode="&#xe0e7;" d="M256 480c-141 0-256-115-256-256 0-76 33-144 86-191 1-2 3-4 5-5 45-37 102-60 165-60s120 23 165 60c2 1 4 3 5 5 53 47 86 115 86 191 0 141-115 256-256 256zM103 41c2 84 73 157 153 157s151-73 153-157c-41-35-95-56-153-56s-112 21-153 56zM426 56c-10 87-85 159-170 159s-160-72-170-159c-42 43-69 102-69 168 0 132 107 239 239 239s239-107 239-239c0-66-27-125-69-168zM205 318c-5 0-9-4-9-9 0-19-15-34-34-34s-34 15-34 34c0 5-4 9-9 9-4 0-8-4-8-9 0-28 22-51 51-51s51 23 51 51c0 5-3 9-8 9zM393 318c-5 0-9-4-9-9 0-19-15-34-34-34s-34 15-34 34c0 5-4 9-9 9s-8-4-8-9c0-28 22-51 51-51s51 23 51 51c0 5-4 9-8 9z" />
<glyph unicode="&#xe262;" d="M280 224l227 227c7 7 7 17 0 24s-17 7-24 0l-227-227-227 227c-7 7-17 7-24 0s-7-17 0-24l227-227-227-227c-7-7-7-17 0-24 3-3 8-5 12-5s9 2 12 5l227 227 227-227c3-3 8-5 12-5s9 2 12 5c7 7 7 17 0 24z" />
<glyph unicode="&#xe2a1;" d="M505 477c-8 5-18 4-24-4l-335-462-117 117c-7 7-17 7-24 0-7-6-7-17 0-24l131-131c4-3 8-5 12-5 1 0 1 0 2 0 5 0 9 3 12 7l347 478c5 8 4 18-4 24z" />
<glyph unicode="&#xe2ab;" d="M247-15c137 0 248 111 248 248 0 136-111 247-248 247-136 0-247-111-247-247 0-137 111-248 247-248zM247 463c128 0 231-103 231-230 0-128-103-231-231-231-127 0-230 103-230 231 0 127 103 230 230 230zM125 222h114v-119c0-4 4-8 8-8 5 0 9 4 9 8v119h127c5 0 8 4 8 8 0 5-3 9-8 9h-127v123c0 4-4 8-9 8-4 0-8-4-8-8v-123h-114c-5 0-9-4-9-9 0-4 4-8 9-8z" />
<glyph unicode="&#xe2d0;" d="M247-15c137 0 248 111 248 248 0 136-111 247-248 247-136 0-247-111-247-247 0-137 111-248 247-248zM247 463c128 0 231-103 231-230 0-128-103-231-231-231-127 0-230 103-230 231 0 127 103 230 230 230zM125 222h258c5 0 8 4 8 8 0 5-3 9-8 9h-258c-5 0-9-4-9-9 0-4 4-8 9-8z" />
<glyph unicode="&#xe2d5;" d="M451 42l-187 374c-3 6-13 6-16 0l-187-376c-2-2-2-6 0-8 1-3 4-4 7-4h376c0 0 0 0 0 0 5 0 8 4 8 8 0 2 0 4-1 6zM247 281c0 5 4 9 9 9s8-4 8-9v-130c0-5-3-9-8-9s-9 4-9 9zM256 73c-11 0-21 9-21 21 0 11 10 20 21 20s21-9 21-20c0-12-10-21-21-21z" />
<glyph unicode="&#xe2ff;" d="M497 476l-350-486-132 132c-4 4-9 4-12 0-4-3-4-8 0-12l139-140c2-1 4-2 6-2 1 0 1 0 1 0 3 0 5 2 6 4l355 494c3 4 2 10-2 12-3 3-9 2-11-2z" />
<glyph unicode="&#xe333;" d="M239 273v-131c0-5 4-9 8-9 5 0 9 4 9 9v131c0 4-4 8-9 8-4 0-8-4-8-8zM264 85c0-9-8-16-17-16s-16 7-16 16c0 9 7 16 16 16s17-7 17-16zM255 407c-3 6-12 6-15 0l-188-375c-1-3-1-6 0-9 2-2 5-4 8-4h375c0 0 0 0 0 0 5 0 9 4 9 9 0 2-1 3-2 5zM74 36l173 348 174-348z" />
<glyph unicode="&#xe600;" d="M302.080-32h-92.16c-6.827 0-11.946 5.12-11.946 11.947v201.387h-80.213c-6.826 0-11.947 5.12-11.947 11.947v92.16c0 6.827 5.12 11.946 11.947 11.946h80.213v25.6c0 8.534 0 18.774 1.707 29.014s3.413 20.48 6.827 30.72c3.413 10.24 6.827 20.48 11.947 29.013 5.12 10.24 10.24 18.774 17.066 25.6s13.654 11.946 20.48 17.066c6.827 5.12 13.654 8.534 22.187 13.654 8.534 3.413 17.067 6.827 25.6 8.534 8.534 3.413 17.067 3.413 27.307 3.413h63.147c6.827 0 11.947-5.12 11.947-11.947v-92.16c0-6.827-5.12-11.947-11.947-11.947h-63.147c-1.707 0-3.413 0-6.827-1.707-1.707-1.707-5.12-1.707-6.827-3.413s-1.707-1.707-3.413-3.413c0-1.707-1.707-3.413-1.707-6.827v-52.906h80.214c6.827 0 11.947-5.12 11.947-11.947v-92.16c0-6.827-5.12-11.947-11.947-11.947h-80.214v-201.387c1.707-5.12-3.413-10.24-10.24-10.24z" />
<glyph unicode="&#xe601;" d="M385.707 97.707c-17.067 0-34.134 3.413-49.493 10.24s-29.014 15.36-40.96 27.307c-11.947 11.947-20.48 25.6-27.307 40.96s-10.24 30.72-10.24 47.786c0 17.066 3.413 34.134 10.24 49.493s15.36 29.013 27.307 39.253c11.947 11.947 23.894 20.48 39.254 27.307 30.72 13.654 68.267 13.654 98.986 0 15.36-6.827 29.014-15.36 39.254-27.307 11.947-11.946 20.48-23.893 27.307-39.253 8.534-15.36 11.947-32.427 11.947-49.493s-3.413-32.426-10.24-47.786c-6.827-15.36-15.36-29.014-27.307-40.96s-25.6-20.48-40.96-27.307c-13.654-6.827-29.014-10.24-47.786-10.24zM126.293 97.707c-69.974 0-126.293 56.32-126.293 126.293s56.32 126.293 126.293 126.293c69.974 0 126.293-56.32 126.293-126.293s-56.32-126.293-126.293-126.293zM126.293 329.813c-58.026 0-105.814-47.786-105.814-105.813s47.786-105.813 105.814-105.813c58.026 0 105.814 47.786 105.814 105.814 1.707 58.027-46.080 105.814-105.814 105.814z" />
<glyph unicode="&#xe602;" d="M512 360.534h-85.334v85.334h-34.133v-85.334h-85.334v-34.134h85.334v-85.333h34.134v85.334h85.333zM221.867 186.454c-11.946 8.534-34.133 29.014-34.133 40.96 0 13.654 3.413 20.48 25.6 37.547s37.547 40.96 37.547 69.974c0 34.133-15.36 76.8-42.666 76.8h42.666l29.014 34.133c0 0-98.987 0-133.12 0-59.733 0-116.053-51.2-116.053-104.106s40.96-98.987 100.693-98.987c5.12 0 8.534-1.707 11.947-1.707-3.413-6.827-6.827-17.066-6.827-25.6 0-15.36 8.534-27.306 18.774-37.546-6.827 0-15.36 0-22.186 0-73.386 0-129.707-47.786-129.707-95.573s61.44-78.507 134.827-78.507c83.626 0 129.706 47.786 129.706 95.574 0 39.254-11.947 61.44-46.080 87.040zM150.186 253.013c-34.133 1.707-66.56 37.547-71.68 83.626-5.12 44.374 17.067 80.214 51.2 78.507s66.56-37.546 71.68-81.92c6.827-46.080-17.066-81.92-51.2-80.214zM136.534 24.32c-51.2 0-87.040 32.426-87.040 71.68 0 37.546 46.080 69.974 95.574 69.974 11.947 0 22.186-1.707 32.427-5.12 27.306-18.774 47.786-30.72 52.906-52.906 1.707-5.12 1.707-8.534 1.707-13.654 1.707-39.254-23.893-69.974-95.573-69.974z" />
<glyph unicode="&#xe603;" d="M512 169.387v-189.44h-109.226v175.786c0 44.373-15.36 75.094-56.32 75.094-30.72 0-47.786-20.48-56.32-40.96-3.413-6.827-3.413-17.067-3.413-27.306v-184.32h-109.226c0 0 1.707 298.666 0 329.387h109.226v-46.080c0 0 0 0 0-1.707v0 1.707c15.36 22.186 40.96 54.613 98.986 54.613 71.68 1.707 126.293-46.080 126.293-146.774zM61.44 468.053c-37.547 0-61.44-23.894-61.44-56.32s23.893-56.32 61.44-56.32v0c37.547 0 61.44 25.6 61.44 56.32 0 32.426-23.894 56.32-61.44 56.32zM6.827-20.053h109.227v329.387h-109.227v-329.387z" />
<glyph unicode="&#xe604;" d="M460.8 326.4c0-3.413 0-8.534 0-11.946 0-138.24-105.814-298.666-298.666-298.666-59.733 0-114.347 15.36-162.133 47.786 8.534 0 15.36 0 23.893 0 51.2 0 93.867 15.36 129.707 42.666-47.786 0-87.040 30.72-98.987 75.094 8.534 0 11.947 0 20.48 0s20.48 0 27.306 3.413c-47.786 8.534-81.92 51.2-81.92 102.4v0c15.36-8.534 30.72-11.947 46.080-11.947-27.306 20.48-47.786 51.2-47.786 87.040 0 20.48 3.413 35.84 15.36 51.2 51.2-63.147 129.707-105.813 216.746-110.933 0 8.534-3.413 15.36-3.413 23.894 0 59.733 47.787 105.813 105.814 105.813 30.72 0 59.733-11.947 78.507-30.72 23.894 3.413 47.786 11.947 66.56 23.894-8.534-23.894-23.894-42.666-47.786-59.733 20.48 3.413 42.666 8.534 59.733 15.36-13.654-23.894-29.014-39.254-49.493-54.613v0z" />
<glyph unicode="&#xe605;" d="M508.587 235.946v244.054l-281.6-40.96v-203.094zM208.214 435.627l-204.8-29.014v-170.667h204.8zM3.413 215.466v-172.374l204.8-30.72v203.094zM226.987 8.96l281.6-40.96v247.466h-281.6z" />
<glyph unicode="&#xe606;" d="M0 224c0-141.654 114.347-256 256-256s256 114.346 256 256c0 141.654-114.346 256-256 256s-256-114.346-256-256zM20.48 224c0 34.134 6.826 66.56 20.48 95.573l112.64-308.906c-80.213 39.254-133.12 119.466-133.12 213.333zM256-11.52c-23.893 0-46.080 3.413-66.56 10.24l71.68 206.506 73.387-199.68c0-1.707 1.707-1.707 1.707-3.413-25.6-10.24-52.906-13.654-80.214-13.654zM447.147 229.12c13.654 34.134 18.774 61.44 18.774 85.334 0 8.534 0 17.066-1.707 23.893 18.774-34.133 29.014-71.68 29.014-112.64 0-87.040-47.786-163.84-117.76-204.8l71.68 208.214zM395.947 300.8c8.534-15.36 18.774-35.84 18.774-64.853 0-20.48-6.827-46.080-18.774-76.8l-23.894-78.507-85.334 254.293c13.654 0 27.306 1.707 27.306 1.707 11.947 1.707 11.947 20.48-1.707 18.774 0 0-37.546-3.413-63.147-3.413-23.893 0-61.44 3.413-61.44 3.413-11.947 0-13.654-18.774-1.707-18.774 0 0 11.947-1.707 25.6-1.707l37.547-100.694-51.2-155.306-85.334 256c13.653 0 27.307 1.707 27.307 1.707 10.24 1.707 10.24 20.48-3.413 20.48 0 0-37.547-3.413-63.147-3.413-5.12 0-10.24 0-15.36 0 42.666 64.853 116.053 105.813 197.974 105.813 61.44 0 117.76-23.894 158.72-61.44-1.707 0-1.707 0-3.413 0-23.894 0-39.254-20.48-39.254-42.666 0-18.774 11.947-34.134 23.894-54.613z" />
<glyph unicode="&#xe607;" d="M489.813 186.454c1.707 11.947 3.413 23.894 3.413 37.547 0 131.413-105.813 237.226-237.226 237.226-11.947 0-25.6-1.706-37.547-3.413-22.186 13.654-47.786 22.187-75.094 22.187-78.507 0-143.36-64.853-143.36-143.36 0-27.307 8.534-52.906 22.186-75.094-1.706-11.947-3.413-23.893-3.413-37.546 0-131.413 105.814-237.226 237.226-237.226 11.947 0 25.6 1.707 37.546 3.413 22.187-13.654 47.786-22.187 75.094-22.187 78.507 0 143.36 64.853 143.36 143.36 0 27.307-8.534 52.906-22.187 75.094zM368.64 116.48c-10.24-13.654-25.6-25.6-44.373-34.134s-42.666-11.947-68.267-11.947c-32.427 0-58.026 5.12-78.507 17.067-15.36 8.534-27.306 18.774-35.84 32.426s-13.653 27.306-13.653 39.253c0 6.827 3.414 13.654 8.533 18.774s13.654 8.534 22.186 8.534c6.827 0 13.654-1.707 18.774-6.827 5.12-3.413 8.534-10.24 11.947-18.774s8.534-17.067 13.654-23.894c5.12-6.827 11.947-11.947 18.774-15.36 8.534-3.413 18.774-6.827 34.133-6.827 18.774 0 34.134 3.413 46.080 11.947s17.067 18.774 17.067 30.72c0 10.24-3.413 17.067-8.534 23.894-6.827 6.827-13.654 10.24-23.894 13.654s-23.894 6.827-40.96 10.24c-22.186 5.12-42.667 10.24-58.026 17.067s-27.306 15.36-37.547 27.306c-8.534 11.946-13.654 25.6-13.654 44.374 0 17.066 5.12 30.72 15.36 44.373s23.893 22.187 42.666 29.014c15.36 6.827 35.84 10.24 61.44 10.24 20.48 0 37.546-1.707 51.2-6.827s25.6-10.24 35.84-18.774c10.24-6.827 17.067-15.36 20.48-23.894 5.12-8.534 6.827-17.066 6.827-23.893s-3.413-13.654-8.534-20.48c-5.12-5.12-11.947-8.534-20.48-8.534-6.827 0-13.654 1.707-17.067 5.12s-8.534 8.534-11.947 17.066c-8.534 11.947-15.36 20.48-22.187 27.306-8.534 6.827-20.48 8.534-39.254 8.534-17.066 0-29.013-3.413-39.254-10.24s-15.36-15.36-15.36-23.893c0-5.12 1.707-10.24 5.12-15.36 3.413-3.413 8.534-8.534 13.654-10.24 6.827-3.413 11.947-5.12 18.774-6.827s17.066-5.12 30.72-8.534c18.774-3.413 34.134-8.534 49.493-13.654s27.306-10.24 37.546-17.066c10.24-6.826 18.774-15.36 23.894-25.6s8.534-23.894 8.534-37.546c0-17.067-5.12-34.133-15.36-47.786z" />
<glyph unicode="&#xe608;" d="M402.774 106.24h-27.307v17.067c0 6.827 5.12 13.654 13.654 13.654h1.707c6.827 0 13.654-5.12 13.654-13.654l-1.707-17.067zM298.666 140.373c-6.827 0-13.654-5.12-13.654-10.24v-80.214c0-5.12 5.12-10.24 13.654-10.24 6.827 0 13.654 5.12 13.654 10.24v80.214c-1.707 5.12-6.827 10.24-13.654 10.24zM469.334 184.747v-150.186c0-35.84-30.72-66.56-69.974-66.56h-286.72c-39.254 0-69.974 29.014-69.974 66.56v150.187c0 35.84 30.72 66.56 69.974 66.56h286.72c39.254 0 69.974-30.72 69.974-66.56zM131.413 17.493v158.72h35.84v23.894h-95.573v-23.894h29.013v-158.72h30.72zM238.934 152.32h-29.013v-85.334c0-11.947 0-18.774 0-20.48-1.707-6.827-13.654-13.654-17.066 0 0 1.707 0 8.534 0 20.48v85.334h-30.72v-83.627c0-13.654 0-22.187 0-27.307 0-8.534 0-17.067 6.827-22.187 13.654-10.24 39.254 1.707 46.080 15.36v-17.067h23.893v134.827zM332.8 55.040v69.974c0 27.307-20.48 42.666-47.786 20.48v52.906h-29.014v-179.2h23.894l1.707 11.947c32.426-29.014 51.2-10.24 51.2 23.894zM426.666 65.28h-22.187c0-1.707 0-1.707 0-3.413v-11.947c0-6.827-5.12-11.947-11.947-11.947h-5.12c-6.827 0-11.947 5.12-11.947 11.947v32.426h51.2v18.774c0 13.654 0 27.306-1.707 35.84-3.413 25.6-39.254 29.014-58.026 17.067-5.12-3.413-10.24-10.24-11.947-17.067s-3.413-17.067-3.413-30.72v-42.666c0-68.267 85.334-59.733 75.094 1.707zM312.32 293.974c1.707-3.413 3.413-6.827 6.827-8.534s6.827-3.413 11.947-3.413c5.12 0 8.534 1.707 11.947 3.413s6.827 5.12 8.534 10.24v-11.947h32.426v141.654h-25.6v-109.226c0-5.12-5.12-10.24-10.24-10.24s-10.24 5.12-10.24 10.24v109.226h-27.307v-95.573c0-11.947 0-20.48 0-23.893-1.707-5.12 0-8.534 1.707-11.947zM211.626 372.48c0 13.654 1.707 23.894 3.413 32.426 1.707 6.827 6.827 13.654 11.946 18.774s13.654 6.827 22.186 6.827c6.827 0 13.653-1.707 20.48-5.12 5.12-3.413 10.24-6.827 11.947-11.947 3.413-5.12 5.12-10.24 6.827-15.36 0-3.413 1.707-11.946 1.707-22.186v-35.84c0-13.654 0-22.187-1.707-29.014s-3.413-11.946-6.827-17.066c-3.413-5.12-6.827-8.534-11.947-11.947-5.12-1.707-11.947-3.413-18.774-3.413s-13.654 1.707-18.774 3.413c-5.12 1.707-8.534 5.12-11.947 10.24s-5.12 10.24-6.827 15.36c-1.707 6.827-1.707 15.36-1.707 27.306v37.547zM237.226 317.866c0-8.534 5.12-13.654 13.654-13.654 6.827 0 13.654 6.827 13.654 13.654v75.094c0 8.534-5.12 13.653-13.654 13.653-6.827 0-13.654-6.826-13.654-13.653v-75.094zM146.774 280.32h30.72v107.52l37.547 92.16h-34.133l-20.48-68.267-20.48 68.267h-34.133l39.254-92.16 1.707-107.52z" />
</font>
</defs>
</svg>
